Cover

loading

===========================================

A Dark Path (2020) 720p WEBRIP DD2.1 H264-RKRips
IMDB Link: https://www.imdb.com/title/tt10546058/

===========================================

GENERAL INFO
Genre : Horror
Director : Nicholas Winter
Stars : Makenna Guyler, Ade Dimberline, Mari Beaseley, Annabelle Mackinnon-Austin, Jimmy Essex, Elle Anderson, Emma Louise Smith, Grace Long, Thomasin Lockwood, Eric Iversen
Plot : Two girls in Eastern Europe on their way home from a hen party in a car with no GPS signal headed for a very unusual forest local people will not...

===========================================

Media Info

Video
ID                          : 1
Format                      : AVC
Format/Info                 : Advanced Video Codec
Format profile              : [email protected]
Format settings             : CABAC / 4 Ref Frames
Format settings, CABAC      : Yes
Format settings, Reference  : 4 frames
Codec ID                    : V_MPEG4/ISO/AVC
Duration                    : 1 h 14 min
Bit rate                    : 4 521 kb/s
Nominal bit rate            : 1 500 kb/s
Width                       : 1 280 pixels
Height                      : 564 pixels
Display aspect ratio        : 2.25:1
Frame rate mode             : Variable
Frame rate                  : 25.000 FPS
Color space                 : YUV
Chroma subsampling          : 4:2:0
Bit depth                   : 8 bits
Scan type                   : Progressive
Bits/(Pixel*Frame)          : 0.251
Stream size                 : 2.36 GiB
Writing library             : x264 core 160
Encoding settings           : cabac=1 / ref=1 / deblock=1:0:0 / analyse=0x3:0x113 / me=hex / subme=2 / psy=1 / psy_rd=1.00:0.00 / mixed_ref=0 / me_range=16 / chroma_me=1 / trellis=0 / 8x8dct=1 / cqm=0 / deadzone=21,11 / fast_pskip=1 / chroma_qp_offset=0 / threads=12 / lookahead_threads=4 / sliced_threads=0 / nr=0 / decimate=1 / interlaced=0 / bluray_compat=0 / constrained_intra=0 / bframes=3 / b_pyramid=2 / b_adapt=1 / b_bias=0 / direct=1 / weightb=1 / open_gop=0 / weightp=1 / keyint=250 / keyint_min=23 / scenecut=40 / intra_refresh=0 / rc_lookahead=10 / rc=abr / mbtree=1 / bitrate=1500 / ratetol=1.0 / qcomp=0.60 / qpmin=0 / qpmax=69 / qpstep=4 / ip_ratio=1.40 / aq=1:1.00
Language                    : English
Default                     : Yes
Forced                      : No

Audio
ID                          : 2
Format                      : AAC LC
Format/Info                 : Advanced Audio Codec Low Complexity
Codec ID                    : A_AAC-2
Duration                    : 1 h 14 min
Bit rate                    : 384 kb/s
Channel(s)                  : 2 channels
Channel layout              : L R
Sampling rate               : 44.1 kHz
Frame rate                  : 43.066 FPS (1024 SPF)
Compression mode            : Lossy
Delay relative to video     : -42 ms
Stream size                 : 205 MiB (23%)
Writing library             : Lavc58.54.100 aac
Language                    : English
Default                     : Yes
Forced                      : No

===========================================

ScreenShot

loading loading loading loading loading

===========================================



Files:

A.Dark.Path.2020.720p.WEBRIP.DD2.1.H264-RKRips
Text has been copied
Now Just Copy And Paste The Magnet In UTorrent , ENjoy :)